mdigital
» » Teddy Hill And His NBC Orchestra - I Know Now / The Lady Who Couldn't Be Kissed

Teddy Hill And His NBC Orchestra - I Know Now / The Lady Who Couldn't Be Kissed download mp3 album

Teddy Hill And His NBC Orchestra - I Know Now / The Lady Who Couldn't Be Kissed download mp3 album
Performer:
Teddy Hill And His NBC Orchestra
Album:
I Know Now / The Lady Who Couldn't Be Kissed
Style:
Big Band
Released:
1937
FLAC vers. size:
1783 mb
MP3 vers. size:
1758 mb
WMA vers. size:
1101 mb
Other formats
AIFF MP2 WMA MP4 TTA MMF MPC
Rating:
4.4 ★
Votes:
911

Teddy Hill And His Orchestra скачать mp3 в хорошем качестве, либо слушайте песню Teddy Hill and His Orchestra - The Love Bug Will Bite You, Teddy Hill and His Orchestra - Where Is the Sun, Teddy Hill and His Orchestra - Blue Rhythm Fantasy, Teddy Hill and His Orchestra - Plantation, Teddy Hill and His Orchestra - Blue Rhythm Fantasy, а также рингтоны на звонок и все новые треки.

The Lady Who Couldn't Be Kissed (2:34) 17. (Have You Forgotten) The You And Me That Used To Be? (2:32) 18. A Study In Brown (2:46) 1. flac" WAVE INDEX 01 00:00:00 TRACK 15 AUDIO TITLE "I Know Now" PERFORMER "Teddy Hill And His Orchestra" INDEX 00 02:15:32 FILE "15. I Know No. lac" WAVE INDEX 01 00:00:00 TRACK 16 AUDIO TITLE "The Lady Who Couldn't Be Kissed" PERFORMER "Teddy Hill And His Orchestra" INDEX 00 03:04:20 FILE "16. The Lady Who Couldn't Be Kissed. flac" WAVE INDEX 01 00:00:00 TRACK 17 AUDIO TITLE "(Have You Forgotten) The You And Me That Used To Be?"

Listen to Got me doin' things from Teddy Hill's Dance With His NBC Orchestra for free, and see the artwork, lyrics and similar artists. Sinners like me. George Gee. Lord have mercy. Globetrotter. Let us know what you think of the Last.

album: Jazz Sound Lexicon 1935 Vol. 1. Teddy Hill And His Nbc Orchestra - Twilight in Turkey. Teddy Hill And His Nbc Orchestra - The Lady Who Couldn't Be Kissed. album: The Mega Collection. Teddy Hill and His Orchestra - I'm Happy Darling (Dancing with You). Teddy Hill and His Orchestra - Uptown Rhapsody. album: Big Bands of Jazz, Teddy Hill 1935-1937. Teddy Hill & His Orchestra - Passionette. album: The Cotton Club.

Teddy Hill & His Orchestra Related artists. 13. The Harlem Twister. 15. I Know Now. 16. 17. The You And Me That Used To Be. 18. A Study In Brown. 19. Twilight In Turkey. 20. China Boy. 21. San Anton'. 22. I'm Happy, Darling, Dancing With You. 23. Yours And Mine. 24. I'm Feeling Like A Million. 25. King Porter Stomp. 26. Blue Rhythm Fantasy. Teddy Hill - 1935-1937 {CC, 645}/ - . 0. Teddy Hill - 1935-1937 {CC, 645}/Scans/ - . Teddy Hill - 1935-1937 {CC, 645}/Scans/back.

I Know Now. Teddy Hill - 1935-1937 {CC, 645}/Scans/booklet . pg - . 5

Teddy Wilson & His Orchestra – Too Good To Be True. Count Basie And His Orchestra – Swinging The Blues Oh Lady Be Good. Ella Fitzgerald (with Bob Haggart and his orchestra) – Oh, Lady Be Good.

All Music News . Popular Teddy Hill & His NBC Orchestra Lyrics.

Tracklist

A I Know Now
B The Lady Who Couldn't Be Kissed

Companies, etc.

  • Record Company – RCA Manufacturing Co., Inc.

Credits

  • Vocals – Bill Dillard
  • Written-By – Al Dubin, Harry Warren

Notes

A&B from the Warner Bros. film "The Singing Marine"