mdigital
» » Firefall - Élan

Firefall - Élan download mp3 album

Firefall - Élan download mp3 album
Performer:
Album:
Élan
Style:
Country Rock, Pop Rock
Released:
1995
Country:
US
FLAC vers. size:
1565 mb
MP3 vers. size:
1545 mb
WMA vers. size:
1439 mb
Other formats
MP4 TTA ADX MIDI AA MOD XM
Rating:
4.1 ★
Votes:
770

Elan is the third album by Firefall, released in 1978. It featured the single "Strange Way" which reached on the Billboard Hot 100 and on the Adult Contemporary chart. Strange Way" – 4:41 (Rick Roberts). Sweet and Sour" – 3:29 (Jock Bartley, Rick Roberts). Wrong Side of Town" – 2:43 (Larry Burnett). Count Your Blessings" – 3:29 (Rick Roberts). Get You Back" – 4:10 (Larry Burnett). Anymore" – 3:56 (Mark Andes, Larry Burnett). Baby" – 3:45 (Larry Burnett).

lan ‎(CD, Album, RM). Rhino Records (2), Atlantic & ATCO Remasters Series. lan ‎(LP, Album, Promo).

Firefall is the self-titled debut from Firefall which saw its release in April 1976. It featured the major hit single "You Are the Woman" which reached on the Billboard Hot 100. Two other tracks achieved minor success on the charts: "Livin' Ain't Livin'" at and "Cinderella" at This album became the fastest record to achieve gold status in Atlantic Records history. It Doesn't Matter" – 3:31 (Chris Hillman, Rick Roberts, Stephen Stills). Love Isn't All" – 4:13 (Larry Burnett).

This album has an average beat per minute of 122 BPM (slowest/fastest tempos: 81/152 BPM). See its BPM profile at the bottom of the page.

Strange Way. Sweet And Sour. Count Your Blessings. Goodbye, I Love You. Sweet Ann. Winds Of Change. Bonus tracks on the CD reissue: New Man (unreleased). Headed For A Fall (unreleased). Sharpshootin' At The Senator (unreleased).

1. Strange Way Lyrics.

Features Song Lyrics for Firefall's Elan album. Firefall - Elan Album Lyrics. 1. Strange Way (LP Version) Lyrics. 2. Goodbye, I Love You (LP Version) Lyrics. 3. Headed For a Fall (original acoustic version) Lyrics. Firefall Lyrics provided by SongLyrics. Do you like this album?

Includes FREE MP3 version of this album.

Biography by Steve Huey. A soft and sweet-sounding country-rock band from the 1970s based out of Colorado.

Tracklist Hide Credits

1 Strange Way
Written-By – Rick Roberts
4:40
2 Sweet And Sour
Lyrics By – Rick RobertsLyrics By, Music By – Jock Bartley
3:27
3 Wrong Side Of Town
Written-By – Larry Burnett
2:38
4 Count Your Blessings
Written-By – Rick Roberts
3:28
5 Get You Back
Written-By – Larry Burnett
4:10
6 Anymore
Written-By – Mark Andes, Rick Roberts
3:56
7 Baby
Written-By – Larry Burnett
3:46
8 Goodbye, I Love You
Written-By – Rick Roberts
4:19
9 Sweet Ann
Written-By – Rick Roberts
3:22
10 Winds Of Change
Written-By – Rick Roberts
3:24
Bonus Selections
11 New Man
Written-By – Larry Burnett
12 Headed For A Fall (Original Acoustic Version)
Written-By – Rick Roberts
13 Sharpshootin' At The Senator
Written-By – Larry Burnett

Credits

  • Acoustic Guitar, Electric Guitar, Lead Vocals, Backing Vocals – Larry Burnett
  • Acoustic Guitar, Lead Vocals, Backing Vocals – Rick Roberts
  • Arranged By [Horns] – Mike Lewis (tracks: A3)
  • Arranged By [String] – Mike Lewis
  • Bass, Backing Vocals – Mark Andes
  • Clavinet, Organ, Synthesizer, Piano, Flute, Baritone Saxophone, Alto Saxophone, Tenor Saxophone, Soprano Saxophone, Harmonica, Piano [Acoustic], Electric Piano – David Muse
  • Congas, Timbales, Cowbell, Tambourine, Triangle, Other [Guido] – Joe Lala
  • Design – Bob Defrin
  • Drums – Jim Keltner (tracks: A2), Michael Clarke
  • Engineer – David Bianco, Michael Stone*, Peter Lewis, Ron Alvarez
  • Engineer [Assitant] – Dennis Hertzendorfer, Kevin Ryan
  • Engineer, Mixed By – Don Gehman
  • Harmony Vocals – Laura Taylor
  • Lead Guitar, Acoustic Guitar, Electric Guitar [12 String], Guitar [Slide], Backing Vocals – Jock Bartley
  • Percussion [Shakers], Congas, Tambourine, Cymbal [Theater], Caxixi, Surdo, Other [Crickets] – Steve Forman
  • Photography By – Jim Houghton
  • Producer – Tom Dowd
  • Producer, Mixed By – Howard Albert, Ron Albert

Notes

Recorded at Criteria Studios, Miami, Florida and the Record Plant, Los Angeles.

Barcode and Other Identifiers

  • Barcode (Scanned): 081227192624

Other versions

Category Artist Title (Format) Label Category Country Year
SD 19183 Firefall Élan ‎(LP, Album, Ric) Atlantic SD 19183 US 1978
ATL 50 494 Firefall Élan ‎(LP, Album) Atlantic ATL 50 494 Austria 1978
P-10532A Firefall Élan ‎(LP, Album, Promo) Atlantic P-10532A Japan 1978
SD 19183 Firefall Élan ‎(LP, Album, Com) Atlantic SD 19183 US 1978
GM-200.2497, Lps. 200.2497 Firefall Élan ‎(LP, Album) Atlantic, Atlantic GM-200.2497, Lps. 200.2497 Venezuela 1978


  • Ramsey`s
foobar2000 1.3.17 / Dynamic Range Meter 1.1.1log date: 2018-04-29 16:18:09--------------------------------------------------------------------------------Analyzed: Firefall / Elan--------------------------------------------------------------------------------DR Peak RMS Duration Track--------------------------------------------------------------------------------DR12 0.00 dB -14.98 dB 4:46 01-Strange WayDR12 0.00 dB -13.73 dB 3:33 02-Sweet And SourDR13 0.00 dB -14.68 dB 2:43 03-Wrong Side Of TownDR12 0.00 dB -13.87 dB 3:34 04-Count Your BlessingsDR11 0.00 dB -12.68 dB 4:16 05-Get You BackDR11 0.00 dB -13.64 dB 4:00 06-AnymoreDR13 0.00 dB -15.22 dB 3:51 07-BabyDR11 0.00 dB -13.12 dB 4:22 08-Goodbye, I Love YouDR14 0.00 dB -15.80 dB 3:26 09-Sweet AnnDR12 0.00 dB -13.31 dB 3:40 10-Winds Of ChangeDR13 0.00 dB -14.47 dB 3:22 11-New ManDR12 0.00 dB -14.77 dB 4:17 12-Headed For A Fall (Original Acoustic Version)DR15 0.00 dB -15.90 dB 5:11 13-Sharpshootin' At The Senator--------------------------------------------------------------------------------Number of tracks: 13Official DR value: DR12Samplerate: 44100 HzChannels: 2Bits per sample: 16Bitrate: 801 kbpsCodec: ALAC================================================================================