mdigital
» » Ray Kennedy - Ray Kennedy (Expanded Edition)

Ray Kennedy - Ray Kennedy (Expanded Edition) download mp3 album

Ray Kennedy - Ray Kennedy (Expanded Edition) download mp3 album
Performer:
Album:
Ray Kennedy (Expanded Edition)
Style:
Pop Rock, Soft Rock
Released:
2015
Country:
US
FLAC vers. size:
1185 mb
MP3 vers. size:
1992 mb
WMA vers. size:
1480 mb
Other formats
XM FLAC DMF DXD AC3 APE AU
Rating:
4.7 ★
Votes:
797

Complete your Ray Kennedy collection. Ray Kennedy ‎– Ray Kennedy. Yay, a recent remaster with good dynamic range!! foobar2000 . 17, Dynamic Range Meter . 1 log date: 2019-04-03 19:36:26.

It Never Crossed My Mind. Besteciler: Ray Kennedy - Jack Conrad.

Ray Kennedy (born May 13, 1954 in Buffalo, New York) is an American country music artist. He has recorded three studio albums: one on Columbia Records and two on Atlantic Records.

Raymond Kennedy (born 28 July 1951) is an English former footballer who won every domestic honour in the game with Arsenal and Liverpool in the 1970s and early 1980s. Kennedy played as a forward for Arsenal, and then played as a left-sided midfielder for Liverpool. He scored 148 goals in 581 league and cup appearances in a 15-year career in the Football League and also won 17 caps for England between 1976 and 1980, scoring three international goals.

Lead Vocals, Arranged By – Ray Kennedy Acoustic Guitar – Steve Lukather Arranged By – Jerry Hey Arranged By – Bill Meyers Backing Vocals – Bill Champlin, Paulette Brown, Tom Kelly, Tommy Funderburk, Venette Gloud Bass – Bob Glaub, Kim Kesterson, Mike Porcaro Castanets – Paul Laney Drums – Jeff Porcaro, Mike Baird, Rick Shlosser Keyboards, Producer, Arranged By – David Foster Piano – Jai Winding Piano, Backing Vocals – Jack. Conrad Programmed By – Ralph Dyck, Steve Porcaro.

Isn't It Time?, 03:57. Just for the Moment, 03:17. My Everlasting Love, 03:56. You Oughta Know by Now, 04:31. It Never Crossed My Mind, 04:34.

Audio CD, July 17, 1990. This CD should have gotten album of the year or at least song of the year. Ray should have recorded many more albums. One person found this helpful.

Tracklist

1 It Never Crossed My Mind
2 Isn't It Time?
3 Just For The Moment
4 Can't Seem To Find The Time
5 My Everlasting Love
6 You Oughta Know By Now
7 Sail On Sailor
8 Starlight
9 Let Me Sing You A Love Letter
Bonus Tracks
10 Dance The Night Away
11 It Never Crossed My Mind (Original Mix)
12 Just For The Moment (Original Mix)
13 Starlight (Single Version)

Companies, etc.

  • Copyright (c) – Real Gone Music
  • Phonographic Copyright (p) – Columbia Records
  • Manufactured For – Real Gone Music
  • Manufactured By – Sony Music Entertainment
  • Remastered At – Battery Studios, New York

Credits

  • Liner Notes – Gene Sculatti
  • Reissue Producer – Gordon Anderson
  • Remastered By – Sean Brennan

Notes

Tracks 10-12 previously unreleased.

Barcode and Other Identifiers

  • Barcode: 8 48064 00324 3

Other versions

Category Artist Title (Format) Label Category Country Year
NJC 36395 Ray Kennedy Ray Kennedy ‎(LP, Album) ARC , Columbia NJC 36395 US 1980
NJC 36395, JC 36395 Ray Kennedy Ray Kennedy ‎(LP, Album, Promo) ARC , Columbia, ARC , Columbia NJC 36395, JC 36395 US 1980
JC 36395, NJC 36395 Ray Kennedy Ray Kennedy ‎(LP, Album, San) ARC , Columbia, ARC , Columbia JC 36395, NJC 36395 US 1980
SICP 8057 Ray Kennedy Ray Kennedy ‎(CD, Album) Sony Records Int'l SICP 8057 Japan 2002
25AP 1884 Ray Kennedy Ray Kennedy ‎(LP, Album) CBS/Sony 25AP 1884 Japan 1980


  • Hanad
Yay, a recent remaster with good dynamic range!!foobar2000 1.3.17 / Dynamic Range Meter 1.1.1log date: 2019-04-03 19:36:26--------------------------------------------------------------------------------Analyzed: Ray Kennedy / Ray Kennedy (2015 Expanded Edition)--------------------------------------------------------------------------------DR Peak RMS Duration Track--------------------------------------------------------------------------------DR13 0.00 dB -14.60 dB 3:33 01-It Never Crossed My MindDR13 -0.16 dB -16.45 dB 3:59 02-Isn't It Time?DR13 -0.09 dB -16.23 dB 3:18 03-Just for the MomentDR13 0.00 dB -14.61 dB 4:17 04-Can't Seem to Find the TimeDR13 -0.21 dB -17.09 dB 3:58 05-My Everlasting LoveDR13 -0.16 dB -14.61 dB 4:33 06-You Oughta Know by NowDR13 0.00 dB -14.99 dB 3:26 07-Sail On SailorDR13 -0.09 dB -15.93 dB 4:34 08-StarlightDR13 -0.09 dB -16.48 dB 4:00 09-Let Me Sing You a Love LetterDR13 0.00 dB -14.54 dB 4:22 10-Dance the Night AwayDR13 -0.11 dB -15.81 dB 4:36 11-It Never Crossed My Mind (Original Mix)DR11 -0.20 dB -14.94 dB 3:57 12-Just for the Moment (Original Mix)DR14 0.00 dB -15.81 dB 3:43 13-Starlight (Single Version)--------------------------------------------------------------------------------Number of tracks: 13Official DR value: DR13Samplerate: 44100 HzChannels: 2Bits per sample: 16Bitrate: 1038 kbpsCodec: ALAC================================================================================