mdigital
» » Peter Allen - The Very Best Of.... Peter Allen

Peter Allen - The Very Best Of.... Peter Allen download mp3 album

Peter Allen - The Very Best Of.... Peter Allen download mp3 album
Performer:
Album:
The Very Best Of.... Peter Allen
Style:
Disco
Released:
1982
Country:
Australia
FLAC vers. size:
1843 mb
MP3 vers. size:
1723 mb
WMA vers. size:
1109 mb
Other formats
VOX ASF RA AIFF AHX AA AU
Rating:
4.1 ★
Votes:
965

The Very Best of Peter Allen is the first compilation album released by Australian singer-songwriter Peter Allen. It was released in 1982 through A&M Records, completing the deal with the label. The album peaked at number 9 on the Australian Kent Music Report. The album was titled The Best in America, with an altered track listing. Side A. I Go to Rio. Don't Wish To Hard. Quiet Please, There's A Lady On Stage. I Honestly Love You. Fly Away.

"Peter Allen – The Best". Retrieved 8 September 2015. "Peter Allen – The Very Best Of Peter Allen". "Peter Allen – The Best". Bi-Coastal is the sixth studio album released in 1980 by Australian singer and songwriter Peter Allen. The album is Allen's most successful and was produced by David Foster who also wrote many of its songs

Peter Allen (born Peter Richard Woolnough; 10 February 1944 – 18 June 1992) was an Australian singer-songwriter, musician and entertainer, known for his flamboyant stage persona and lavish costumes. His songs were made popular by many recording artists, including Elkie Brooks, Melissa Manchester and Olivia Newton-John, with one, "Arthur's Theme (Best That You Can Do)" by Christopher Cross, winning an Academy Award for Best Original Song in 1981

Australian Peter Allen, who passed away in 1992, will probably be best remembered as a brilliant songwriter and flamboyant performer rather than as a charting artist. Indeed, his own chart successes were modest, but cover versions of his material have been pure gold for many major acts, including "Jennifer" for teen idol Bobby Sherman, "I Honestly Love You" for fellow Aussie Olivia Newton-John, and "Don't Cry Out Loud" for Melissa Manchester. A vivacious performer with a poet's sensitivity, this album spans the moods and melodies that made Peter Allen such a special artist.

Australian Peter Allen, who passed away in 1992, will probably be best remembered as a brilliant songwriter and flamboyant performer rather than as a charting artist.

Peter Allen Lyrics provided by SongLyrics. Do you like this album?

the very best of peter allen, the very best of peter allen album The Very Best of Peter Allen is the first compilation album released by Australian singer-songwriter Peter Allen It was released in 1982 through A&M Records, completing the deal with the label The album peaked at number 9 on the Australian Kent Music Report. Australian Track Listing. Tenterfield Saddler 1972. Continental American 1974.

Tracklist

I Go To Rio
Don't Wish Too Hard
Quiet Please, There's A Lady On Stage
I Love You, I Honestly Love You
Fly Away
One Step Over The Borderline
Don't Cry Out Loud
Everything Old Is New Again
Tenterfield Saddler
I Could Have Been A Sailor
Bi-Coastal
The More I See You
I'd Rather Leave While I'm In Love
She Loves To Hear The Music
Just Ask Me, I've Been There
I Still Call Australia Home

Versions

Category Artist Title (Format) Label Category Country Year
RML 52012, RML-52012 Peter Allen The Very Best Of.... Peter Allen ‎(LP, Comp) A&M Records, A&M Records RML 52012, RML-52012 Australia 1982
393 207-4 Peter Allen The Very Best Of .... Peter Allen ‎(Cass, Comp) A&M Records 393 207-4 Australia 1982
RMC 52012 Peter Allen The Very Best Of .... Peter Allen ‎(Cass, Comp) A&M Records RMC 52012 Australia 1982
540 827-2 Peter Allen The Boy From Oz ‎(CD, Comp, RE) A&M Records, Polydor 540 827-2 Australasia 1997
540 827-2 Peter Allen The Very Best Of Peter Allen ‎(CD, Comp, RE) A&M Records, Polydor 540 827-2 Australia 1997
393 207-2 Peter Allen The Very Best Of Peter Allen ‎(CD, Comp) A&M Records, Polydor 393 207-2 Australia Unknown
D 19240 Peter Allen The Very Best Of Peter Allen ‎(CD, Comp) A&M Records, Festival Records D 19240 Australia Unknown
  • Wiliniett
foobar2000 1.3.17 / Dynamic Range Meter 1.1.1log date: 2018-03-22 19:25:59--------------------------------------------------------------------------------Analyzed: Peter Allen / The Very Best Of...Peter Allen--------------------------------------------------------------------------------DR Peak RMS Duration Track--------------------------------------------------------------------------------DR11 -4.38 dB -17.73 dB 3:18 01-I Go To RioDR13 -2.82 dB -18.00 dB 3:37 02-Don't Wish Too HardDR12 -5.14 dB -23.05 dB 5:17 03-Quiet Please, there's a Lady on StageDR11 -5.19 dB -19.23 dB 3:37 04-I Love you, I honestly Love youDR13 -3.23 dB -20.64 dB 4:03 05-Fly AwayDR14 -3.11 dB -19.32 dB 3:49 06-One Step Over The BorderlineDR12 -5.04 dB -22.09 dB 4:10 07-Don't Cry Out LoudDR11 -5.67 dB -19.35 dB 2:38 08-Everything Old Is New AgainDR12 -1.85 dB -18.39 dB 3:38 09-Tenterfield SaddlerDR14 -2.07 dB -19.41 dB 3:56 10-I Could Have Been A SailorDR14 -1.34 dB -18.13 dB 4:21 11-Bi-CoastalDR11 -2.41 dB -17.00 dB 3:37 12-The More I See YouDR13 -2.33 dB -19.98 dB 3:41 13-I'd Rather Leave While I'm In LoveDR12 -1.81 dB -17.81 dB 3:23 14-She Loves to Hear the MusicDR12 -3.28 dB -18.89 dB 3:37 15-Just Ask Me I've Been ThereDR14 -0.42 dB -19.66 dB 3:58 16-I Still Call Australia Home--------------------------------------------------------------------------------Number of tracks: 16Official DR value: DR13Samplerate: 44100 HzChannels: 2Bits per sample: 16Bitrate: 730 kbpsCodec: ALAC================================================================================